#TITLE:Festival of Ghost 2;
#SUBTITLE:;
#ARTIST:Brandy;
#TITLETRANSLIT:;
#SUBTITLETRANSLIT:;
#ARTISTTRANSLIT:;
#CREDIT:Tony;
#BANNER:;
#BACKGROUND:;
#LYRICSPATH:;
#CDTITLE:;
#MUSIC:Brandy - The Festival of Ghost 2.mp3;
#OFFSET:-0.380;
#SAMPLESTART:100.020;
#SAMPLELENGTH:11.980;
#SELECTABLE:YES;
#BPMS:0.000=82.000,5.000=328.000,6.000=82.000,7.813=328.000,10.000=82.000,10.750=68.000,26.500=34.350,26.875=68.700,27.688=138.000,30.000=350.000,32.000=68.000,32.229=204.000,32.250=204.000,33.000=68.000,33.229=204.000,33.250=204.000,34.000=68.000,34.229=204.000,34.250=204.000,35.000=68.000,35.229=204.000,35.250=204.000,36.000=68.000,36.229=204.000,37.000=68.000,37.229=204.000,38.000=68.000,38.250=204.000,39.000=68.000,39.250=204.000,40.000=68.000,41.500=22.600,41.625=160.000,41.646=160.000,42.000=136.100,86.000=68.000,87.500=360.000,90.000=61.000,92.000=58.000,94.000=53.000,96.000=61.000,97.000=63.000,98.000=136.200,144.500=60.000,145.000=350.000,146.000=68.100,148.000=136.000,152.000=68.200,154.000=134.000,158.000=136.000,194.000=68.000,194.250=204.000,195.000=68.000,195.250=204.000,196.000=68.000,196.250=204.000,197.000=68.000,197.250=204.000,198.000=68.000,198.250=204.000,199.000=68.000,199.250=204.000,200.000=68.000,200.125=204.000,200.500=68.200,200.625=204.000,201.000=68.400,201.125=204.000,201.500=68.600,201.625=204.000,202.000=68.800,202.250=204.000,203.000=68.100,203.250=204.000,204.000=68.120,204.250=204.000,205.000=68.140,205.250=204.000,206.000=68.160,206.250=204.000,207.000=68.180,207.250=204.000,208.000=68.200,208.125=204.000,208.500=68.220,208.625=204.000,209.000=68.260,209.125=204.000,209.500=68.280,209.625=204.000,210.000=68.300,210.688=-1.980,210.750=68.280,213.688=-2.220,213.750=145.420,219.000=148.000,227.000=145.500,243.000=148.000,247.000=75.500,247.125=217.500,247.500=145.560,251.000=72.500,251.125=217.500,251.500=146.300,263.000=145.900,295.500=140.000,295.750=135.000,296.000=130.000,296.250=120.000,296.500=110.000,296.750=100.000,297.000=90.000,297.250=80.001,297.500=75.001,297.750=70.001,298.000=65.001,298.250=60.001,298.500=55.001,298.750=50.001,299.000=40.001,299.250=35.001,299.500=32.501,299.750=30.001,300.000=27.501,300.188=-17.639,300.250=999.991;
#STOPS:;
#BGCHANGES:;
// cache tags:
#FIRSTBEAT:0.063;
#LASTBEAT:305.500;
#SONGFILENAME:Songs/Music V.I.P ^_^/Festival Of Ghost 2/Brandy - The Festival of Ghost 2.sm;
#HASMUSIC:1;
#HASBANNER:0;
#MUSICLENGTH:150.230;
// end cache tags

//---------------dance-single - Blank----------------
#NOTES:
     dance-single:
     Blank:
     Hard:
     13:
     1.000,1.000,1.000,0.186,0.899,744.000,277.000,28.000,37.000,70.000:
0000
1002
0000
0000
0000
0000
0000
0000
0000
0000
0000
0000
0000
0000
0000
0000
0000
0010
0000
0000
0000
0000
0000
0000
0000
0000
0000
0000
0000
0000
0000
0000
0100
0000
0000
0000
0000
0000
0000
0000
0000
0000
0000
0000
0000
0000
0000
0000
1000
0000
0000
0000
0000
0000
0000
0000
0000
0000
0000
0000
0000
0000
0000
0000
,
0000
0000
0000
0000
0000
0000
0003
0000
2000
0000
0000
0000
0000
0000
0000
0000
3000
0000
0000
0000
0000
0000
0010
0000
0000
0000
0000
0000
0000
0100
0000
0000
,
0000
0000
0000
0000
0000
0000
0000
2000
0000
0000
3100
0000
1000
0000
0020
0000
,
0031
0001
0120
1030
1000
0210
0301
0001
,
2001
0100
0010
0001
3010
1000
0020
0000
0001
0000
1130
0000
0001
0010
0100
0010
,
0001
0000
1000
0100
0010
0100
1000
0000
1000
0100
0010
0100
0020
0000
2030
0000
,
0010
0000
0000
0000
0001
0000
3000
0000
1000
0000
0001
0010
0100
0000
1000
0100
0010
0000
0001
0010
2100
0000
0000
0010
0000
0000
0000
0000
0000
0000
0010
0000
,
0000
0000
0000
0000
0000
3001
0000
0000
0000
0000
0000
0000
0000
0000
0000
0000
,
0101
1010
0101
1010
,
0101
1010
0011
1100
,
2222
0000
0000
3333
1100
0001
0010
0100
,
1100
0000
0010
0000
0001
0000
0010
0000
1100
0001
0010
0000
1000
0000
0001
1000
,
0011
0000
1000
0000
1000
0001
1010
0000
1100
0000
0100
1000
0001
0000
1000
0010
,
0100
0000
0100
0000
0100
0000
1000
0000
1100
0010
0001
0000
0101
0010
0100
0000
,
1000
0010
0100
0010
1000
0001
0100
0010
1101
0000
0010
0100
0010
0000
0100
0000
,
0101
0000
0010
0000
0001
0000
0010
0000
0011
0100
0010
0000
1000
0000
0001
0010
,
1001
0000
1000
0000
0001
1000
0101
0000
1100
0000
0100
0010
1000
0000
0001
0100
,
0010
0000
0100
0000
0100
0000
1000
0000
0110
0000
1010
0000
0101
1010
0000
0101
,
0010
0000
0100
0000
0001
0100
1000
0000
0100
0000
0010
0000
1000
0000
0001
0000
0110
0000
0000
0000
1000
0000
0000
0000
0101
0000
0000
0000
0010
0000
0000
0000
,
1010
0100
0101
0010
1010
1000
0101
0010
,
1100
0110
1001
1001
0101
0001
0110
0100
,
1001
0000
0000
0000
0000
0000
0000
0000
0000
0000
0000
0000
0000
0000
0000
0000
0000
0000
0000
0000
0000
0000
0000
0000
0101
0000
0000
0000
0000
0000
0000
0000
0000
0000
0000
0000
0000
0000
0000
0000
0000
0000
0000
0000
0000
0000
0000
0000
0110
0000
0000
0000
0000
0000
0000
0000
0000
0000
0000
0000
0000
0000
0000
0000
0000
0000
0000
0000
0000
0000
0000
0000
0110
0000
0000
0000
0000
0000
0000
0000
0000
0000
0000
0000
0000
0000
0000
0000
0000
0000
0000
0000
0000
0000
0000
0000
0202
0000
0000
0000
0000
0000
0000
0000
0000
0000
0000
0000
0000
0000
0000
0000
0000
0000
0000
0000
0000
0000
0000
0000
0000
0000
0000
0000
0000
0000
0303
0000
0000
0000
0000
0000
0000
0000
0000
0000
1000
0000
0000
0000
0100
0000
0000
0000
0011
0000
0000
0000
0000
0000
0000
0000
0000
0000
0000
0000
0000
0000
0000
0000
0000
0000
0000
0000
0000
0000
0000
0000
1100
0000
0000
0000
0000
0000
0000
0000
0000
0000
0000
0000
0000
0000
0000
0000
0000
0000
0000
0000
0000
0000
0000
0000
,
0000
0000
0000
0000
0000
0000
0000
0000
0000
0000
0000
0000
1000
0100
0010
0001
0010
0100
1000
0100
0010
0001
0010
0100
,
1000
0100
0010
0001
0010
0100
1000
0100
0010
0001
0010
0100
1000
0100
0010
0001
0010
0100
1000
0100
0010
0001
0010
0001
,
0100
1000
0100
0010
0100
0010
0001
0010
0001
0010
0100
0001
2020
0000
0000
0000
0000
0000
3130
0000
0000
0000
0000
0000
,
0202
0000
0000
0000
0313
0000
0000
0000
1000
0100
0010
0001
1010
0100
0010
0100
,
0011
1000
0100
0010
0100
0001
0010
0100
1011
0100
0010
0100
1000
0100
0010
0100
,
1000
0100
0010
0001
1010
0100
0010
0001
1101
0010
0100
1000
0101
1000
0100
0010
,
1100
0010
0001
0010
1001
0010
0100
0100
1001
0100
1000
0100
1010
0100
1000
0100
,
1001
0100
1000
0100
1010
0100
1000
0100
1001
0010
1001
0100
1010
0001
1100
0010
,
0101
1000
0100
0010
1001
0100
0010
0001
1110
0001
0010
0100
1000
0100
0010
0001
,
0110
1000
0100
0010
0100
0010
0100
1000
1101
0010
0001
0001
0010
0010
0100
0100
,
1000
0000
1000
0000
0100
0000
0100
0000
1000
0000
1000
0000
0001
0100
0010
0001
1010
0000
0000
0000
0000
0000
0000
0000
0111
0000
0000
0000
0000
0000
0000
0000
,
1011
0000
0000
0000
0000
0000
0000
0000
0000
0000
0010
0100
1011
0000
0000
0000
0000
0000
0000
0000
0000
0000
0000
0000
1110
0000
0000
0000
0000
0000
0111
0000
0000
0000
0000
0000
1101
0000
0000
0000
0000
0000
1110
0000
0000
0000
0000
0000
,
1011
0000
0111
0000
1101
0000
1110
0000
1011
0000
0000
0111
0000
0100
1011
0000
,
1101
0000
0000
1110
0000
1000
0111
0000
0101
1010
0101
0000
0000
0000
0000
0000
,
0000
0000
0001
0000
0000
0000
0000
0000
1100
1100
0010
1100
1100
0001
1100
1100
,
0011
0100
1000
0100
0010
0001
1000
0100
0010
0001
1000
0100
0010
0001
1000
0010
,
0001
0000
0000
0011
0000
0000
1000
0000
0000
0011
0000
0000
0011
0000
0000
0100
0000
0000
0011
0000
0000
0011
0000
0000
1000
0000
0000
0000
0100
0000
0000
0000
0010
0000
0000
0000
0101
0000
0000
0000
1000
0000
0000
0000
0010
0000
0000
0000
,
1100
0000
0000
0000
0010
0000
0000
0000
0010
0000
0000
0000
1001
0000
0000
0000
0100
0000
0000
0000
1000
0000
0000
0000
0011
0000
0000
0100
0000
0000
0100
0000
0000
1000
0000
0000
1100
0000
0000
0010
0000
0000
0010
0000
0000
0001
0000
0000
,
1010
0100
0011
0100
1100
0001
0001
0010
1100
1000
0010
0100
0011
1000
0101
0010
,
1001
1000
0101
0001
0011
0000
1100
0000
1000
1000
1100
0001
1010
0000
0011
0010
,
1010
0000
0000
0100
0000
0000
0010
0000
0000
0010
0000
0000
0101
0000
0000
0001
0000
0000
1010
0000
0000
0000
0000
0000
2100
0000
0000
0000
0001
0000
0000
0000
0010
0000
0000
0000
0100
0000
0000
0000
0001
0000
0000
0000
0010
0000
0000
0000
,
0100
0000
0000
0000
0010
0000
0000
0000
3100
0000
0000
0000
1000
0000
0000
0000
0010
0000
0000
0000
0100
0000
0000
0000
0012
0000
0000
0000
0000
0000
1000
0000
0000
0000
0000
0000
1100
0000
0000
0000
0000
0000
0100
0000
0000
0010
0000
0000
,
2003
0000
0010
0000
0011
0000
0001
0010
3002
0000
0100
0000
1100
0000
0010
0100
,
0023
0001
0101
1000
1130
0001
1010
0100
,
1100
0010
1001
0010
1101
0100
1001
0010
,
0101
0010
1100
0100
1110
0001
0101
0001
,
1001
0010
1100
0010
0101
0000
1010
0000
,
0101
0000
0000
0000
0000
0000
0000
0000
0000
0000
0000
0000
1010
0000
0000
0000
0000
0000
0000
0000
0000
0000
0100
0010
1001
0000
0000
0000
0000
0000
0000
0000
0000
0000
0000
0000
1010
0000
0000
0000
0000
0000
0000
0000
0000
0000
0000
0000
,
0011
1100
0110
0011
1100
0000
1010
0000
,
0101
0000
0000
0000
0000
0000
0000
0000
0000
0000
0000
0000
1100
0000
0000
0000
0000
0000
0000
0000
0000
0000
1000
0001
0110
0000
0000
0000
0000
0000
0000
0000
0000
0000
0000
0000
0011
0000
0000
0000
0000
0000
0000
0000
0000
0000
0000
0000
,
0011
0000
0110
0000
1100
0000
0110
0000
0011
0000
0000
1100
0000
0000
0000
0000
,
0000
0000
0000
0000
0000
MMMM
0MM0
1110
1001
1101
1011
1001
0000
1001
0110
0010
,
0110
0000
M00M
MM0M
M0MM
M00M
0000
M00M
0MM0
00M0
0MM0
0000
1110
0000
0000
0000
,
1010
0000
0010
0010
1001
0000
0100
0000
1001
0000
0010
0000
1001
0010
1001
0010
,
1100
0010
0100
1000
0101
0010
0001
0010
1001
0100
1000
0100
0011
0000
1000
0010
,
1100
0000
0001
0000
0101
0000
0010
0000
0101
0000
0010
0000
1100
0010
0100
0010
,
1100
0001
0010
0001
1010
0100
0010
0001
1010
0100
1000
0100
0011
0000
1100
0000
,
0101
0000
1000
0001
1010
0000
0100
0000
0101
0000
0001
0000
0101
0000
1000
0000
,
1100
0010
0001
0000
0011
0000
0001
0000
0011
0100
1000
0000
1100
0100
1000
0100
,
0011
0100
0010
0001
1010
0100
0001
0100
1010
0001
0100
0010
1101
0000
0011
0000
,
0101
1010
0000
0011
0000
0011
1100
0000
1000
0000
1100
0000
1100
0000
0011
0000
,
1010
0101
0000
0110
0000
1100
0011
0000
1010
0000
0011
0000
1100
0000
0010
0000
,
1001
0010
1001
0100
1100
0010
1110
0001
,
0101
0000
0001
0000
0101
0000
0010
0000
1100
0010
0100
0000
1101
0000
0010
0000
,
1001
1000
1100
0100
1001
0010
1011
1000
,
1000
0100
0011
0000
1000
0100
0011
0000
0101
0000
0010
0000
1101
0000
0001
0000
,
0101
1000
1100
0010
1011
0010
1110
0010
,
1001
0000
0001
0000
1001
0000
1000
0010
1100
0000
0100
0000
1010
0000
0000
0000
,
0111
0000
0000
0000
0000
0000
0000
0000
0000
0000
0000
0000
1011
0000
0000
0000
0000
0000
0000
0000
0000
0000
0010
0100
1011
0000
0000
0000
0000
0000
0000
0000
0000
0000
0000
0000
1110
0000
0000
0000
0000
0000
0111
0000
0000
0000
0000
0000
,
1101
1110
1011
0111
1101
1110
1011
1110
,
1011
0000
1101
0000
1110
0000
1011
0000
1101
0000
0111
0000
1110
0000
0111
1000
,
0000
0100
1011
0000
1101
0000
1011
0100
0000
1000
0111
0000
0001
0010
2002
0000
,
0000
0000
0000
0000
,
0000
3113
0000
0000
0000
0000
0000
0000
0000
0000
0000
0000
0000
0000
0000
0000
,
0000
0000
0000
0000
0000
0000
0000
0000
0000
M000
0M00
MMM0
M00M
0000
000M
000M
00MM
0M00
M00M
0000
0000
0000
0000
0000
0000
0000
0000
0000
0000
0000
0000
0000
0000
0000
0000
0000
0000
0000
0000
0000
0000
0000
0000
0000
0000
0000
0000
0000
;
